#TITLE:Get Up!;
#SUBTITLE:;
#ARTIST:BanYa;
#TITLETRANSLIT:;
#SUBTITLETRANSLIT:;
#ARTISTTRANSLIT:;
#CREDIT:;
#BANNER:getup-bn.png;
#BACKGROUND:getup-bg.PNG;
#LYRICSPATH:;
#CDTITLE:;
#MUSIC:Get Up!.mp3;
#OFFSET:-5.580;
#SAMPLESTART:16.283;
#SAMPLELENGTH:12.000;
#SELECTABLE:YES;
#BPMS:0.000=180.000;
#STOPS:;
#BGCHANGES:;
// cache tags:
#FIRSTBEAT:0.000;
#LASTBEAT:261.500;
#SONGFILENAME:Songs/nhac/Get Up!/Get Up!.sm;
#HASMUSIC:1;
#HASBANNER:1;
#MUSICLENGTH:96.800;
// end cache tags

//---------------dance-single - ----------------
#NOTES:
     dance-single:
     :
     Hard:
     9:
     0.714,0.675,0.444,0.351,0.088,407.000,43.000,34.000,0.000,0.000:
1000
0100
0010
0001
0010
0100
1000
0000
,
2002
0000
0000
0000
3003
0000
1000
0100
1000
0000
0001
0000
0001
0000
0000
0000
,
1000
0010
0100
0001
0010
0100
1000
0010
,
2020
0000
3030
0001
0002
0000
0003
0000
,
0100
0010
1000
0010
0100
0001
0010
0100
,
2200
0000
3300
1000
0100
0010
0001
0010
,
0100
0010
1000
0010
0100
0001
0010
0100
,
0002
0000
0000
1000
2000
0000
3003
0000
,
1100
0101
0011
1010
,
1100
0000
0001
0100
1000
0000
1100
0000
,
1000
0000
0000
0001
0000
0000
1000
0000
0001
0000
0000
0000
1001
0000
0000
0000
,
0102
1000
0103
0220
,
0330
0011
1100
0101
,
0011
0000
0000
0000
1010
0000
0000
0000
1001
0000
0000
1000
0100
0000
1000
0000
,
0010
0100
0001
0010
0100
1000
0010
0100
,
2002
0000
3003
0001
0002
0000
0003
0000
,
1000
0000
0001
0000
0100
0000
0010
0000
1000
0000
0000
0001
0000
0000
1000
0000
,
0001
0000
0000
0100
0000
0000
0001
0000
0100
0000
0000
0000
1100
0000
0000
0000
,
0010
0000
0010
0000
0100
0000
1000
0000
0100
0000
0000
0001
0000
0000
0100
0000
,
1000
0000
0000
0010
0000
0000
0100
0000
0002
0000
0000
0000
0103
0000
0000
0000
,
1000
0001
1000
0001
0100
0010
0100
0010
,
1000
0001
1000
0001
0010
1000
0010
1000
,
0100
1000
0100
1000
0010
0001
0010
0001
,
0100
0001
0100
0001
1000
0001
1000
0000
,
1000
0010
1000
0010
1000
0100
0001
0100
,
1000
0000
0010
0000
0001
0000
0010
0000
1000
0000
0100
0000
0010
0001
0010
0000
,
0001
0010
0100
0001
0100
1000
0010
0100
,
0021
0000
0000
0100
0230
0000
0000
0300
,
1000
0100
1000
0001
0100
0001
1000
0010
,
0100
0000
0010
0000
0001
0000
1000
0000
0001
1000
0001
0000
0010
0000
0100
0000
,
0010
0001
0010
0100
0010
1000
0100
0010
,
0022
0000
0033
1000
2000
0000
3000
0000
,
1100
0101
0011
1010
,
1000
0000
0100
0001
0101
0000
1100
0000
,
1000
0000
0000
0001
0000
0000
0100
0000
0010
0000
0000
0000
1100
0000
0000
0000
,
0002
0023
0230
2300
,
0000
0000
3001
0010
0100
1000
0100
0010
,
0001
0100
1000
0100
0001
0010
1000
0010
,
0001
0100
0001
0100
0001
0010
0001
0010
,
0011
0000
1000
0010
0100
0000
1000
0010
,
0100
0000
1000
0010
0100
0000
1010
0000
,
0110
0000
1000
0001
0100
0000
1000
0001
,
0100
0000
1000
0001
0100
0000
1001
0000
,
0001
0100
1000
0100
0001
0010
1000
0010
,
0001
0100
0010
1000
0001
0010
0100
1000
,
0100
0010
0100
0001
0010
0100
1000
0100
,
0010
0001
0010
0100
1000
0100
0010
0001
,
0100
0100
0100
0100
0100
0100
0100
0100
,
0010
0010
0010
0010
0010
0010
0010
0010
,
0100
0001
0100
0001
0200
0020
0000
0300
,
0032
0000
0003
0100
0000
2200
0000
3300
,
1000
0100
0000
0101
0000
0022
0000
0033
,
0001
0000
0000
0100
0000
0000
1000
0000
0000
0000
1000
0000
0000
0000
0100
0000
,
0010
0000
1001
0000
0101
0000
1000
0100
,
1000
0010
0100
0001
0010
0100
1000
0001
,
0100
0010
0001
0010
0100
1000
0001
1000
,
0100
0010
0100
1000
0100
0010
0100
0001
,
0101
0000
0001
1000
0001
0000
0001
1000
,
1001
0000
0010
0100
1000
0000
0010
0100
,
1100
0000
1000
0100
0010
0000
0001
0100
,
0010
0000
1000
0100
0010
0000
0101
0000
,
1001
1000
0100
0010
0001
0100
0010
1000
,
0100
0010
0001
1000
0010
0100
1000
0100
,
0010
0001
0000
0001
1000
0000
0010
0100
0000
0100
0010
0000
1000
0001
0000
0001
,
2000
3002
0000
0000
,
0000
0000
0000
0003
0000
0000
0000
0000
;

//---------------dance-single - ----------------
#NOTES:
     dance-single:
     :
     Beginner:
     2:
     0.152,0.199,0.031,0.114,0.000,89.000,3.000,11.000,0.000,0.000:
1000
0000
0000
0000
,
0100
0000
0000
0000
,
1000
0000
0000
0000
,
0100
0000
0000
0000
,
0010
0000
0000
0000
,
0001
0000
0000
0000
,
0010
0000
0000
0000
,
0001
0000
0000
0000
,
1000
0000
0000
1000
,
1000
0000
0000
0001
,
0001
0000
0000
0000
,
0010
0010
0010
0010
,
0000
0100
0000
0000
,
0000
0000
0001
0000
,
0100
0000
1000
0000
,
0100
0000
0001
0000
,
0020
0000
0000
0000
,
0030
0000
0000
0000
,
2000
0000
0000
0000
,
3000
0000
0000
0000
,
0001
0000
0000
0000
,
0001
0000
0000
0000
,
0001
0000
0000
0000
,
0001
0000
0000
0000
,
1000
0000
0000
0000
,
0100
0000
0000
0000
,
0001
0000
1000
0000
,
0001
0000
0100
0000
,
0010
0000
0000
0000
,
0000
0000
1000
0000
,
1000
0000
0001
0000
,
0001
0000
0100
0000
,
0100
0000
0000
0000
,
0001
0000
0000
0000
,
2000
0000
0000
3000
,
1000
0000
0001
0001
,
0000
0100
0000
0010
,
0010
0010
0000
1000
,
1000
0000
0001
0000
,
2000
0000
0000
0000
,
3000
0000
0000
0001
,
0002
0000
0000
0000
,
0000
0000
0003
0000
,
0100
0000
0100
0000
,
0010
0000
0010
0000
,
1000
0000
1000
0000
,
0001
0000
0001
0000
,
1001
0000
0000
0000
,
0000
0000
0000
0000
,
1001
0000
0000
0000
,
1000
0000
0100
0000
,
0010
0000
0000
0000
,
0002
0000
0000
0003
,
0001
0000
0000
1001
,
0000
1000
1000
1000
,
0000
0000
0000
0010
,
0010
0000
0100
0000
,
0200
0000
0000
0300
,
0200
0000
0000
0300
,
0200
0000
0000
0000
,
0300
0000
0000
0010
,
0020
0000
0000
0000
,
0030
0000
0000
0000
,
0100
0100
0100
0100
,
0200
0300
0000
0000
;

//---------------dance-single - ----------------
#NOTES:
     dance-single:
     :
     Easy:
     4:
     0.360,0.574,0.165,0.620,0.000,168.000,16.000,60.000,0.000,0.000:
1000
0001
1000
0001
,
2000
3000
0010
0100
,
1000
1000
1000
1000
,
2000
0000
0002
3003
,
0001
0010
0100
1000
,
0002
0000
0200
0303
,
0100
0001
0100
0010
,
0200
0000
0020
0330
,
2000
3020
2030
3020
,
0230
0302
0023
0032
,
2003
0000
0002
3003
,
1001
1001
1001
0002
,
0000
0013
0100
0010
,
0001
0001
0001
0001
,
1000
1000
1000
1000
,
0200
0000
0020
0330
,
0020
0000
0000
0000
,
0000
0000
0100
0130
,
0200
0000
0000
0000
,
0000
0000
0010
0310
,
0010
0000
1000
0000
,
0010
0000
1000
0000
,
0010
0000
0100
0000
,
0010
0000
0100
0000
,
0002
0003
0001
0010
,
0200
0000
0000
0000
,
0301
0010
0100
1000
,
1002
0000
0200
0303
,
0100
0001
0100
1000
,
0200
0000
0010
0310
,
1000
1000
1000
1000
,
1002
0000
0020
0033
,
0200
0320
0230
0320
,
0032
0023
2030
3020
,
0200
0000
0000
0330
,
0110
0110
0110
0220
,
0330
0010
0001
0010
,
1000
0100
0001
0100
,
1000
1000
1000
1000
,
0020
0000
0000
0000
,
0000
0000
0000
0100
,
0200
0000
0000
0000
,
0000
0000
0000
0330
,
1000
0000
0100
0000
,
0010
0000
0100
0000
,
0001
0000
0100
0000
,
0010
0000
0100
0000
,
0020
0032
0023
2030
,
3020
0230
0320
2030
,
3001
0001
0001
0000
,
1000
0000
0100
0100
,
0010
0001
0010
0000
,
0200
0000
0000
0000
,
0001
0001
0301
2002
,
3003
1000
0100
0010
,
0001
0010
0100
1000
,
0100
0010
0100
0010
,
0200
0000
0000
0000
,
0302
0000
0000
0000
,
0203
0000
0000
0000
,
0000
0000
0000
1300
,
2002
0000
0000
0000
,
0000
0000
0000
3003
,
1001
1001
0110
0110
,
1002
0203
0000
0000
,
0000
0000
0000
0300
0000
0000
0000
0000
;

//---------------dance-single - ----------------
#NOTES:
     dance-single:
     :
     Medium:
     6:
     0.508,0.608,0.486,0.754,0.021,224.000,47.000,73.000,0.000,0.000:
1000
0100
1000
0000
0010
0000
0100
0000
,
2002
0000
3003
0000
0010
0100
0010
0100
,
0010
1000
0100
0001
,
0200
0000
2000
3300
,
0010
0001
0010
0000
0100
0000
1000
0000
,
2002
0000
3003
0000
0001
0010
0100
1000
,
0100
0010
1000
0001
,
2002
3000
0200
0303
,
0101
0101
1010
1010
,
1000
0000
0100
0001
0100
0000
0010
0000
,
2000
0000
3100
0110
,
0011
1010
1001
0022
,
0033
0001
1000
0010
,
0100
0000
0001
0000
1000
0010
0100
0010
,
0100
0001
0010
0100
,
2000
0000
0020
3030
,
1000
0000
0010
0000
1000
0000
0010
0000
1000
0000
0000
1000
0000
0000
1000
0000
,
0100
0000
0000
0100
0000
0000
0100
0000
2000
0000
0000
0000
3001
0000
0000
0000
,
0001
0000
0010
0000
0001
0000
0010
0000
0100
0000
0000
0100
0000
0000
0100
0000
,
0010
0000
0000
0010
0000
0000
0010
0000
0002
0000
0000
0000
0013
0000
0000
0000
,
0200
0000
0300
0220
0000
0330
0000
0000
,
0020
0000
0030
0022
0000
0033
0000
0000
,
0020
0030
0220
0330
,
0200
0000
0300
2200
0000
0000
3300
0000
,
2000
0000
3100
0001
,
0100
0001
0100
0000
0100
0010
0100
0010
,
0100
1000
0100
0010
,
2002
0003
0020
3030
,
0001
0010
0100
1000
,
2002
0000
3003
0000
0001
0010
0100
1000
,
0100
0001
0100
1000
,
0200
0000
0000
0001
0002
0000
0303
0000
,
0101
1100
0101
1100
,
1000
0000
0010
0100
0010
0000
1010
0000
,
2000
0000
3001
0101
,
0011
1010
0011
2002
,
3003
1000
0010
0001
,
0010
0100
0010
1000
,
1010
1010
1001
1001
,
0202
0000
0000
0000
,
0000
0000
0303
0110
,
0220
0000
0000
0000
,
0000
0000
0000
0330
,
2002
0000
3003
2020
0000
0000
0000
3030
,
2200
0000
3300
0220
0000
0000
0000
0330
,
0022
0000
0000
0033
2200
0000
0000
3300
,
2002
0000
3003
0202
0000
0000
0303
0000
,
0001
1000
0001
1000
0001
1000
0001
1000
,
0010
0100
0010
0100
0010
0100
0010
0100
,
0020
2030
3020
0000
,
1030
0000
0000
0100
0000
0001
0000
0000
,
0001
1000
0000
0100
0000
0100
0000
0000
,
0020
0000
0000
0000
,
1000
1000
1030
2002
,
3003
0001
1000
0010
,
0100
0001
0100
0000
0001
0100
0001
0000
,
1000
0100
0010
0001
,
2002
0000
0000
0003
,
0200
0000
0000
0300
,
0020
0000
0000
0000
,
0000
0000
3030
1001
,
0202
0000
0000
0000
,
0000
0000
0000
0303
,
0001
0001
1000
1000
0001
0001
1000
1000
,
0002
2003
0000
0000
,
0000
0000
0000
3000
0000
0000
0000
0000
;
